• <small id="eqgyu"><input id="eqgyu"></input></small><rt id="eqgyu"><tbody id="eqgyu"></tbody></rt>
  • <optgroup id="eqgyu"><object id="eqgyu"></object></optgroup>
  • 西西論壇

     找回密碼
     立即注冊
    搜索
    打印 上一主題 下一主題

    魔發精靈2 Trolls.World.Tour.2020.1080p.3D.BluRay.Half-SBS.x264.TrueHD.7.1.Atmos- ...

    [復制鏈接]
    跳轉到指定樓層
    樓主
    admin 發表于 2021-12-4 18:49:58 | 只看該作者 |只看大圖 回帖獎勵 |倒序瀏覽 |閱讀模式
    魔發精靈2 Trolls.World.Tour.2020.1080p.3D.BluRay.Half-SBS.x264.TrueHD.7.1.Atmos-FGT                                                                                                                                                                              -->
    帖子完整標題:魔發精靈2 Trolls.World.Tour.2020.1080p.3D.BluRay.Half-SBS.x264.TrueHD.7.1.Atmos-FGT 13.10GB





    ◎譯  名 魔發精靈2 / Trolls 2 / 丑娃2 / 巨魔2 / 巨魔娃娃2 / 魔發精靈2:世界巡演 / 魔發精靈唱游世界(臺) / 魔發精靈:世界之旅 / 魔發精靈:唱游大世界(港)
    ◎片  名 Trolls World Tour
    ◎年  代 2020
    ◎產  地 美國
    ◎類  別 動畫 / 歌舞 / 奇幻 / 冒險
    ◎語  言 英語
    ◎上映日期 2020-04-10(美國)
    ◎IMDb評分6.1/10 from 8463 users

    ◎豆瓣評分 6.7/10 from 3078 users
    ◎ 
    ◎片  長 90分鐘
    ◎導  演 沃爾特·道恩 Walt Dohrn / 戴維·P·史密斯 David P. Smith
    ◎編  劇 喬納森·阿貝爾 Jonathan Aibel / 格倫·伯杰 Glenn Berger / 瑪雅·福布斯 Maya Forbes / 華萊士·沃洛達斯基 Wallace Wolodarsky / Elizabeth Tippet / 托馬斯·丹姆 Thomas Dam
    ◎主  演 安娜·肯德里克 Anna Kendrick
         賈斯汀·汀布萊克 Justin Timberlake
         蕾切爾·布魯姆 Rachel Bloom
         詹姆斯·柯登 James Corden
         羅恩·芬奇斯 Ron Funches
         凱莉·克拉克森 Kelly Clarkson
         山姆·洛克威爾 Sam Rockwell
         詹米·多南 Jamie Dornan
         喬治·克林頓 George Clinton
         瑪麗·布萊姬 Mary J. Blige
         基南·湯普森 Kenan Thompson
         昆瑙·內亞 Kunal Nayyar
         卡洛琳·耶爾特 Caroline Hjelt
         艾諾·賈沃 Aino Jawo
         弗盧拉·博格 Flula Borg
         伊絲特爾·迪恩 Ester Dean
         奧茲·奧斯朋 Ozzy Osbourne
         安東尼·拉莫斯 Anthony Ramos
         卡蘭·索尼 Karan Soni
         查琳·易 Charlyne Yi
         樸秀榮 Joy
         姜澀琪 SeulGi
         佐伊·丹斯切爾 Zooey Deschanel
         克里斯托夫·梅茲-普萊瑟 Christopher Mintz-Plasse
         凱文·邁克爾·理查德森 Kevin Michael Richardson
         沃爾特·道恩 Walt Dohrn
         戴維·P·史密斯 David P. Smith
         達明·喬伊·倫道夫 Da'Vine Joy Randolph
         貝琪·索達羅 Betsy Sodaro
         Marcella Lentz-Pope
         Anderson .Paak
         J Balvin


    ◎標  簽 動畫 | 魔發精靈 | 夢工廠 | 動畫電影 | 美國 | 歌舞 | 2020 | 美國電影

    ◎簡  介

      講述Poppy和Branch有了一個驚人的發現——除了他們之外,還有其他的魔發精靈世界,各部落的明顯差異導致了巨大的沖突。當一種神秘的邪惡力量讓所有的精靈世界都面臨危險時,Poppy和Branch以及朋友們將踏上一段史詩般的探尋旅程,在長期不和的各精靈族群中創造和諧氛圍,讓大家團結起來對抗某種厄運。
      這部片的音樂風格將更加多樣化,流行音樂、鄉村音樂、嘻哈音樂、硬搖滾、驟停打擊樂、電子舞曲等都有。
    Video
    ID             : 1
    Format           : AVC
    Format/Info          : Advanced Video Codec
    Format profile         :
    Format settings        : CABAC / 3 Ref Frames
    Format settings, CABAC       : Yes
    Format settings, Reference frames  : 3 frames
    Codec ID           : V_MPEG4/ISO/AVC
    Duration           : 1 h 30 min
    Bit rate           : 15.5 Mb/s
    Width            : 1 920 pixels
    Height           : 1 080 pixels
    Display aspect ratio       : 16:9
    Frame rate mode        : Constant
    Frame rate           : 23.976 (24000/1001/189150) FPS
    Color space          : YUV
    Chroma subsampling       : 4:2:0
    Bit depth          : 8 bits
    Scan type          : Progressive
    Bits/(Pixel*Frame)       : 0.312
    Stream size          : 9.79 GiB (75%)
    Title            : Trolls.World.Tour.2020.1080p.3D.BluRay.Half-SBS.x264.TrueHD.7.1.Atmos-FGT
    Writing library        : x264 core 148
    Encoding settings        : cabac=1 / ref=3 / deblock=1:-1:-1 / analyse=0x3:0 / me=hex / subme=5 / psy=1 / psy_rd=1.00:0.00 / mixed_ref=0 / me_range=16 / chroma_me=1 / trellis=1 / 8x8dct=1 / cqm=0 / deadzone=21,11 / fast_pskip=0 / chroma_qp_offset=0 / threads=48 / lookahead_threads=8 / sliced_threads=0 / nr=0 / decimate=1 / interlaced=0 / bluray_compat=0 / constrained_intra=0 / bframes=2 / b_pyramid=0 / b_adapt=1 / b_bias=0 / direct=1 / weightb=0 / open_gop=0 / weightp=0 / keyint=24 / keyint_min=2 / scenecut=40 / intra_refresh=0 / rc=abr / mbtree=0 / bitrate=15500 / ratetol=1.0 / qcomp=0.60 / qpmin=0 / qpmax=69 / qpstep=4 / ip_ratio=1.40 / pb_ratio=1.30 / aq=1:1.00
    Default            : Yes
    Forced           : No
    Color range          : Limited
    Color primaries        : BT.709
    Transfer characteristics     : BT.709
    Matrix coefficients        : BT.709

    Audio #1
    ID             : 2
    Format           : MLP FBA 16-ch
    Format/Info          : Meridian Lossless Packing FBA with 16-channel presentation
    Commercial name        : Dolby TrueHD with Dolby Atmos
    Codec ID           : A_TRUEHD
    Duration           : 1 h 30 min
    Bit rate mode          : Variable
    Bit rate           : 3 173 kb/s
    Maximum bit rate         : 5 049 kb/s
    Channel(s)           : 8 channels
    Channel layout         : L R C LFE Ls Rs Lb Rb
    Sampling rate          : 48.0 kHz
    Frame rate           : 1 200.000 FPS (40 SPF)
    Compression mode         : Lossless
    Stream size          : 2.01 GiB (15%)
    Title            : Trolls.World.Tour.2020.1080p.3D.BluRay.Half-SBS.x264.TrueHD.7.1.Atmos-FGT
    Language           : English
    Default            : Yes
    Forced           : No
    Number of dynamic objects      : 11
    Bed channel count        : 1 channel
    Bed channel configuration      : LFE

    Audio #2
    ID             : 3
    Format           : AC-3
    Format/Info          : Audio Coding 3
    Commercial name        : Dolby Digital
    Codec ID           : A_AC3
    Duration           : 1 h 30 min
    Bit rate mode          : Constant
    Bit rate           : 448 kb/s
    Channel(s)           : 6 channels
    Channel layout         : L R C LFE Ls Rs
    Sampling rate          : 48.0 kHz
    Frame rate           : 31.250 FPS (1536 SPF)
    Bit depth          : 16 bits
    Compression mode         : Lossy
    Stream size          : 291 MiB (2%)
    Title            : Trolls.World.Tour.2020.1080p.3D.BluRay.Half-SBS.x264.TrueHD.7.1.Atmos-FGT
    Language           : English
    Service kind         : Complete Main
    Default            : No
    Forced           : No

    Audio #3
    ID             : 4
    Format           : AC-3
    Format/Info          : Audio Coding 3
    Commercial name        : Dolby Digital
    Codec ID           : A_AC3
    Duration           : 1 h 30 min
    Bit rate mode          : Constant
    Bit rate           : 640 kb/s
    Channel(s)           : 6 channels
    Channel layout         : L R C LFE Ls Rs
    Sampling rate          : 48.0 kHz
    Frame rate           : 31.250 FPS (1536 SPF)
    Bit depth          : 16 bits
    Compression mode         : Lossy
    Stream size          : 415 MiB (3%)
    Title            : Trolls.World.Tour.2020.1080p.3D.BluRay.Half-SBS.x264.TrueHD.7.1.Atmos-FGT
    Language           : Italian
    Service kind         : Complete Main
    Default            : No
    Forced           : No

    Audio #4
    ID             : 5
    Format           : AC-3
    Format/Info          : Audio Coding 3
    Commercial name        : Dolby Digital
    Codec ID           : A_AC3
    Duration           : 1 h 30 min
    Bit rate mode          : Constant
    Bit rate           : 640 kb/s
    Channel(s)           : 6 channels
    Channel layout         : L R C LFE Ls Rs
    Sampling rate          : 48.0 kHz
    Frame rate           : 31.250 FPS (1536 SPF)
    Bit depth          : 16 bits
    Compression mode         : Lossy
    Stream size          : 415 MiB (3%)
    Title            : Trolls.World.Tour.2020.1080p.3D.BluRay.Half-SBS.x264.TrueHD.7.1.Atmos-FGT
    Language           : Arabic
    Service kind         : Complete Main
    Default            : No
    Forced           : No

    Audio #5
    ID             : 6
    Format           : AC-3
    Format/Info          : Audio Coding 3
    Commercial name        : Dolby Digital
    Codec ID           : A_AC3
    Duration           : 1 h 30 min
    Bit rate mode          : Constant
    Bit rate           : 192 kb/s
    Channel(s)           : 2 channels
    Channel layout         : L R
    Sampling rate          : 48.0 kHz
    Frame rate           : 31.250 FPS (1536 SPF)
    Bit depth          : 16 bits
    Compression mode         : Lossy
    Stream size          : 125 MiB (1%)
    Title            : Trolls.World.Tour.2020.1080p.3D.BluRay.Half-SBS.x264.TrueHD.7.1.Atmos-FGT
    Language           : English
    Service kind         : Complete Main
    Default            : No
    Forced           : No

    Text #1
    ID             : 7
    Format           : PGS
    Muxing mode          : zlib
    Codec ID           : S_HDMV/PGS
    Codec ID/Info          : Picture based subtitle format used on BDs/HD-DVDs
    Duration           : 1 h 24 min
    Bit rate           : 60.6 kb/s
    Count of elements        : 3034
    Stream size          : 36.5 MiB (0%)
    Title            : English-PGS
    Language           : English
    Default            : Yes
    Forced           : No

    Text #2
    ID             : 8
    Format           : PGS
    Muxing mode          : zlib
    Codec ID           : S_HDMV/PGS
    Codec ID/Info          : Picture based subtitle format used on BDs/HD-DVDs
    Duration           : 1 h 29 min
    Bit rate           : 45.7 kb/s
    Count of elements        : 2728
    Stream size          : 29.4 MiB (0%)
    Title            : Italian-pgs
    Language           : Italian
    Default            : No
    Forced           : No

    Text #3
    ID             : 9
    Format           : PGS
    Muxing mode          : zlib
    Codec ID           : S_HDMV/PGS
    Codec ID/Info          : Picture based subtitle format used on BDs/HD-DVDs
    Duration           : 1 h 29 min
    Bit rate           : 24.7 kb/s
    Count of elements        : 2748
    Stream size          : 15.9 MiB (0%)
    Title            : Arabic-PGS
    Language           : Arabic
    Default            : No
    Forced           : No

    Menu
    00:00:00.000         : en:Chapter 01
    00:05:12.770         : en:Chapter 02
    00:08:44.899         : en:Chapter 03
    00:12:51.729         : en:Chapter 04
    00:18:25.813         : en:Chapter 05
    00:22:58.835         : en:Chapter 06
    00:27:36.404         : en:Chapter 07
    00:30:35.041         : en:Chapter 08
    00:34:23.352         : en:Chapter 09
    00:38:27.138         : en:Chapter 10
    00:41:13.095         : en:Chapter 11
    00:46:19.276         : en:Chapter 12
    00:50:12.426         : en:Chapter 13
    00:54:22.926         : en:Chapter 14
    00:59:23.226         : en:Chapter 15
    01:03:39.273         : en:Chapter 16
    01:06:25.523         : en:Chapter 17
    01:10:18.297         : en:Chapter 18
    01:15:41.828         : en:Chapter 19
    01:21:19.916         : en:Chapter 20

    [/url]

    [/url]

    [/url]



                                                                      
                                                                                                                                                                                                                                                                                     
    95bb526d40636d0491dbe86f13064396.zip (66.21 KB, 下載次數: 0)

    回復

    使用道具 舉報

    小黑屋|西西論壇

    本網站所有資源來自網絡,如無意中侵犯了您的權益,請發郵件至 [email protected],立即清除相關鏈接

    GMT+8, 2024-5-24 17:20 , Processed in 0.104846 second(s), 29 queries .

    Powered by Discuz! X3.2

    © 2001-2013 Comsenz Inc.

    快速回復 返回頂部 返回列表
    caoponrn免费公开视频,国产97人人超碰caoprom,久久人人97超碰caoporen,超碰CaoPorn97人人
  • <small id="eqgyu"><input id="eqgyu"></input></small><rt id="eqgyu"><tbody id="eqgyu"></tbody></rt>
  • <optgroup id="eqgyu"><object id="eqgyu"></object></optgroup>