• <small id="eqgyu"><input id="eqgyu"></input></small><rt id="eqgyu"><tbody id="eqgyu"></tbody></rt>
  • <optgroup id="eqgyu"><object id="eqgyu"></object></optgroup>
  • 西西論壇

     找回密碼
     立即注冊
    搜索
    打印 上一主題 下一主題

    過關斬將/威龍猛將 The.Running.Man.1987.REMASTERED.720p.BluRay.x264-PEGASUS 6.11G ...

    [復制鏈接]
    跳轉到指定樓層
    樓主
    admin 發表于 2021-12-4 18:04:29 | 只看該作者 |只看大圖 回帖獎勵 |倒序瀏覽 |閱讀模式
    過關斬將/威龍猛將 The.Running.Man.1987.REMASTERED.720p.BluRay.x264-PEGASUS 6.11GB                                                                                                                                                                              -->
    帖子完整標題:過關斬將/威龍猛將 The.Running.Man.1987.REMASTERED.720p.BluRay.x264-PEGASUS 6.11GB





    ◎譯  名 過關斬將/威龍猛將/跑步者/逃跑的人/魔鬼阿諾
    ◎片  名 The Running Man
    ◎年  代 1987
    ◎產  地 美國
    ◎類  別 動作 / 科幻 / 驚悚
    ◎語  言 英語
    ◎上映日期 1987-11-13
    ◎豆瓣評分 6.8/10 from 5058 users
    ◎ 
    ◎片  長 101 分鐘
    ◎導  演 保羅·邁克爾·格拉澤 Paul Michael Glaser
    ◎編  劇 斯蒂芬·金 Stephen King / 斯蒂芬·E.德·索薩 Steven E. de Souza
    ◎主  演 阿諾·施瓦辛格 Arnold Schwarzenegger
         瑪利亞·康柯塔·阿隆索 Maria Conchita Alonso
         杰西·溫圖拉 Jesse Ventura
         Anthony Pena Anthony Pena
         愛德華·邦克 Edward Bunker
         史文-歐爾·托爾森 Sven-Ole Thorsen
         戴·揚 Dey Young
         羅德格爾·邦帕斯 Rodger Bumpass
         琳恩·瑪麗·斯圖爾特 Lynne Marie Stewart
         小托馬斯·羅薩萊斯 Thomas Rosales Jr.
         羅杰·科恩 Roger Kern
         弗蘭科·哥倫布 Franco Columbu
         博伊德·肯斯特納 Boyd Kestner
         梅利莎·赫利 Melissa Hurley
         卡德羅莎·奧娜·卡羅爾
         理查德·道森 Richard Dawson
         米克·弗利特伍德 Mick Fleetwood
         Billy D. Lucas Billy D. Lucas
         林·沙燁 Lin Shaye
         喬治·P·威爾伯 George P. Wilbur
         柯特·富勒 Kurt Fuller
         吉姆·布朗 Jim Brown
         Dweezil Zappa Dweezil Zappa
         亞非特·科托 Yaphet Kotto
         Erland van Lidth Erland van Lidth
         田中通教授 Professor Toru Tanaka
         Karen Leigh Hopkins Karen Leigh Hopkins

    ◎標  簽 動作 | 美國 | 科幻 | 施瓦辛格 | 暴力 | 1987 | 阿諾德·施瓦辛格 | 美國電影

    ◎簡  介

      該片延續了施瓦辛格一貫的英雄風格。在2019年,美國已經成為了一個獨裁國家,在這里,不容許有不同的聲音出現。本(阿諾?施瓦辛格 Arnold Schwarzenegger 飾)是一名警察,因對當局的命令不滿,拒不執行命令而被判有罪遭到逮捕。
      
      現在只有一個機會能讓本重獲自由,那就是參加電視臺的“過關斬將”節目并最終獲勝。這個節目肆意歪曲事實,誤導觀眾,節目里的有識之士被扭曲形象,遭到殺害。本千辛萬苦從電視臺逃出來后,聯合了一班正義之士,準備殺回電視臺拆穿這個節目的騙局!
    Video
    ID             : 1
    Format           : AVC
    Format/Info          : Advanced Video Codec
    Format profile         :
    Format settings        : CABAC / 9 Ref Frames
    Format settings, CABAC       : Yes
    Format settings, Reference frames  : 9 frames
    Codec ID           : V_MPEG4/ISO/AVC
    Duration           : 1 h 40 min
    Bit rate           : 7 797 kb/s
    Width            : 1 280 pixels
    Height           : 720 pixels
    Display aspect ratio       : 16:9
    Frame rate mode        : Constant
    Frame rate           : 23.976 (24000/1001/189150) FPS
    Color space          : YUV
    Chroma subsampling       : 4:2:0
    Bit depth          : 8 bits
    Scan type          : Progressive
    Bits/(Pixel*Frame)       : 0.353
    Stream size          : 5.49 GiB (90%)
    Writing library        : x264 core 163 r3059 b684ebe0
    Encoding settings        : cabac=1 / ref=9 / deblock=1:-3:-3 / analyse=0x3:0x133 / me=umh / subme=10 / psy=1 / psy_rd=1.00:0.00 / mixed_ref=1 / me_range=32 / chroma_me=1 / trellis=2 / 8x8dct=1 / cqm=0 / deadzone=21,11 / fast_pskip=0 / chroma_qp_offset=-2 / threads=22 / lookahead_threads=5 / sliced_threads=0 / nr=0 / decimate=0 / interlaced=0 / bluray_compat=0 / constrained_intra=0 / bframes=16 / b_pyramid=2 / b_adapt=2 / b_bias=0 / direct=3 / weightb=1 / open_gop=0 / weightp=2 / keyint=240 / keyint_min=24 / scenecut=40 / intra_refresh=0 / rc_lookahead=60 / rc=crf / mbtree=0 / crf=20.0 / qcomp=0.65 / qpmin=0 / qpmax=69 / qpstep=4 / vbv_maxrate=62500 / vbv_bufsize=78125 / crf_max=0.0 / nal_hrd=none / filler=0 / ip_ratio=1.40 / pb_ratio=1.30 / aq=2:0.80
    Default            : Yes
    Forced           : No
    Color range          : Limited
    Color primaries        : BT.709
    Transfer characteristics     : BT.709
    Matrix coefficients        : BT.709

    Audio #1
    ID             : 2
    Format           : AC-3
    Format/Info          : Audio Coding 3
    Commercial name        : Dolby Digital
    Codec ID           : A_AC3
    Duration           : 1 h 40 min
    Bit rate mode          : Constant
    Bit rate           : 640 kb/s
    Channel(s)           : 6 channels
    Channel layout         : L R C LFE Ls Rs
    Sampling rate          : 48.0 kHz
    Frame rate           : 31.250 FPS (1536 SPF)
    Compression mode         : Lossy
    Stream size          : 462 MiB (7%)
    Language           : English
    Service kind         : Complete Main
    Default            : Yes
    Forced           : No

    Audio #2
    ID             : 3
    Format           : AAC LC
    Format/Info          : Advanced Audio Codec Low Complexity
    Codec ID           : A_AAC-2
    Duration           : 1 h 40 min
    Bit rate           : 100.0 kb/s
    Channel(s)           : 2 channels
    Channel layout         : L R
    Sampling rate          : 48.0 kHz
    Frame rate           : 46.875 FPS (1024 SPF)
    Compression mode         : Lossy
    Stream size          : 72.1 MiB (1%)
    Title            : Commentary with Director Paul Michael Glaser and Producer Tim Zinnemann
    Language           : English
    Default            : No
    Forced           : No

    Audio #3
    ID             : 4
    Format           : AAC LC
    Format/Info          : Advanced Audio Codec Low Complexity
    Codec ID           : A_AAC-2
    Duration           : 1 h 40 min
    Bit rate           : 99.1 kb/s
    Channel(s)           : 2 channels
    Channel layout         : L R
    Sampling rate          : 48.0 kHz
    Frame rate           : 46.875 FPS (1024 SPF)
    Compression mode         : Lossy
    Stream size          : 71.5 MiB (1%)
    Title            : Commentary by Producer Rob Cohen
    Language           : English
    Default            : No
    Forced           : No

    Text #1
    ID             : 5
    Format           : UTF-8
    Codec ID           : S_TEXT/UTF8
    Codec ID/Info          : UTF-8 Plain Text
    Duration           : 1 h 38 min
    Bit rate           : 54 b/s
    Count of elements        : 1146
    Stream size          : 39.3 KiB (0%)
    Language           : English
    Default            : No
    Forced           : No

    Text #2
    ID             : 6
    Format           : PGS
    Muxing mode          : zlib
    Codec ID           : S_HDMV/PGS
    Codec ID/Info          : Picture based subtitle format used on BDs/HD-DVDs
    Duration           : 1 h 39 min
    Bit rate           : 26.6 kb/s
    Count of elements        : 1858
    Stream size          : 18.9 MiB (0%)
    Language           : German
    Default            : No
    Forced           : No

    Text #3
    ID             : 7
    Format           : PGS
    Muxing mode          : zlib
    Codec ID           : S_HDMV/PGS
    Codec ID/Info          : Picture based subtitle format used on BDs/HD-DVDs
    Duration           : 1 h 40 min
    Bit rate           : 43.6 kb/s
    Count of elements        : 1928
    Stream size          : 31.2 MiB (0%)
    Language           : German
    Default            : No
    Forced           : No

    Text #4
    ID             : 8
    Format           : PGS
    Muxing mode          : zlib
    Codec ID           : S_HDMV/PGS
    Codec ID/Info          : Picture based subtitle format used on BDs/HD-DVDs
    Duration           : 1 h 40 min
    Bit rate           : 49.2 kb/s
    Count of elements        : 1936
    Stream size          : 35.3 MiB (1%)
    Language           : German
    Default            : No
    Forced           : No

    Menu
    00:00:00.000         : :Chapter 1
    00:03:21.743         : :Chapter 2
    00:13:41.195         : :Chapter 3
    00:21:57.775         : :Chapter 4
    00:29:00.155         : :Chapter 5
    00:34:45.458         : :Chapter 6
    00:40:24.589         : :Chapter 7
    00:45:14.921         : :Chapter 8
    00:50:00.956         : :Chapter 9
    00:55:49.054         : :Chapter 10
    01:02:36.920         : :Chapter 11
    01:09:11.564         : :Chapter 12
    01:16:41.097         : :Chapter 13
    01:23:29.046         : :Chapter 14
    01:29:38.832         : :Chapter 15
    01:33:24.432         : :Chapter 16
    01:40:42.286         : :Chapter 17






                                                                      
                                                                                                                                                                                                                                                                                     
    27888f78164113d1faca1419b6df230a.torrent (16.05 KB, 下載次數: 0)

    回復

    使用道具 舉報

    小黑屋|西西論壇

    本網站所有資源來自網絡,如無意中侵犯了您的權益,請發郵件至 [email protected],立即清除相關鏈接

    GMT+8, 2024-5-24 16:03 , Processed in 0.073239 second(s), 25 queries .

    Powered by Discuz! X3.2

    © 2001-2013 Comsenz Inc.

    快速回復 返回頂部 返回列表
    caoponrn免费公开视频,国产97人人超碰caoprom,久久人人97超碰caoporen,超碰CaoPorn97人人
  • <small id="eqgyu"><input id="eqgyu"></input></small><rt id="eqgyu"><tbody id="eqgyu"></tbody></rt>
  • <optgroup id="eqgyu"><object id="eqgyu"></object></optgroup>