• <small id="eqgyu"><input id="eqgyu"></input></small><rt id="eqgyu"><tbody id="eqgyu"></tbody></rt>
  • <optgroup id="eqgyu"><object id="eqgyu"></object></optgroup>
  • 西西論壇

     找回密碼
     立即注冊
    搜索
    打印 上一主題 下一主題

    赤裸裸 Naked.1993.REMASTERED.720p.BluRay.x264-GAZER 6.27GB

    [復制鏈接]
    跳轉到指定樓層
    樓主
    admin 發表于 2021-12-4 18:04:29 | 只看該作者 |只看大圖 回帖獎勵 |倒序瀏覽 |閱讀模式
    赤裸裸 Naked.1993.REMASTERED.720p.BluRay.x264-GAZER 6.27GB                                                                                                                                                                              -->
    帖子完整標題:赤裸裸 Naked.1993.REMASTERED.720p.BluRay.x264-GAZER 6.27GB





    ◎譯  名 赤裸裸/Mike Leigh's Naked/赤裸/赤裸港灣
    ◎片  名 Naked
    ◎年  代 1993
    ◎產  地 英國
    ◎類  別 劇情
    ◎語  言 英語
    ◎上映日期 1993-11-05
    ◎豆瓣評分 7.9/10 from 4612 users
    ◎ 
    ◎片  長 131 分鐘
    ◎導  演 邁克·李 Mike Leigh
    ◎編  劇 邁克·李 Mike Leigh
    ◎主  演 大衛·休里斯 David Thewlis
         萊斯利·夏普 Lesley Sharp
         凱特琳·卡特利吉 Katrin Cartlidge
         克萊爾·斯金納 Claire Skinner
         彼得·懷特 Peter Wight
         艾文·布萊納 Ewen Bremner
         吉娜·麥基 Gina McKee
         格雷格·克魯特威爾 Greg Cruttwell
         蘇珊·維德勒 Susan Vidler
         黛博拉·麥克拉倫 Deborah MacLaren
         卡羅萊娜·賈梅塔 Carolina Giammetta
         伊麗莎白·貝林頓 Elizabeth Berrington
         彼得·惠特曼 Peter Whitman
         桑德拉·沃 Sandra Voe
         托比·瓊斯 Toby Jones

    ◎標  簽 英國 | 邁克·李 || 英國電影 | 1993 | MikeLeigh | Mike_Leigh | 劇情

    ◎簡  介

      冷酷粗暴的流浪漢約翰尼(大衛·休里斯 David Thewlis飾)來到倫敦尋找自己的前任女友路易絲·克蘭西(萊絲莉·夏普 Lesley Sharp飾),從一座失業問題嚴重的工業城市曼徹斯特來到交織在光鮮與黑暗中的大都市倫敦。約翰尼結識了路易絲的室友索菲(凱特琳·卡特利吉 Katrin Cartlidge飾),兩人當天就在公寓做了愛。一覺醒來,已經愛上約翰尼的索菲得到的卻是約翰尼一副玩世不恭的冷面拒絕。憤世嫉俗的約翰尼不僅仇視女性,也痛恨著自己與他身處的一切。他冷漠地與陌生女人做愛,絕望地與這個世界暴力相向。
      
      本片榮獲1993年第46屆戛納電影節主競賽單元-最佳導演大獎,男主角大衛·休里斯憑借此片榮獲最佳男演員獎,本片也同時入圍第46屆戛納電影節主競賽單元-金棕櫚獎。

    ◎獲獎情況

      第46屆戛納電影節 ?(1993)
      主競賽單元金棕櫚獎(提名) 邁克·李
      主競賽單元最佳導演 邁克·李
      主競賽單元最佳男演員 大衛·休里斯
      
      第47屆英國電影學院獎 ?(1994)
      電影獎最佳英國影片(提名) 西蒙·錢寧·威廉姆斯?/?邁克·李
    Video
    ID             : 1
    Format           : AVC
    Format/Info          : Advanced Video Codec
    Format profile         :
    Format settings        : CABAC / 9 Ref Frames
    Format settings, CABAC       : Yes
    Format settings, Reference frames  : 9 frames
    Codec ID           : V_MPEG4/ISO/AVC
    Duration           : 2 h 11 min
    Bit rate           : 6 088 kb/s
    Width            : 1 196 pixels
    Height           : 720 pixels
    Display aspect ratio       : 5:3
    Frame rate mode        : Constant
    Frame rate           : 24.000 FPS
    Color space          : YUV
    Chroma subsampling       : 4:2:0
    Bit depth          : 8 bits
    Scan type          : Progressive
    Bits/(Pixel*Frame)       : 0.295
    Stream size          : 5.59 GiB (89%)
    Writing library        : x264 core 164 r3065 ae03d92
    Encoding settings        : cabac=1 / ref=9 / deblock=1:-3:-3 / analyse=0x3:0x133 / me=umh / subme=10 / psy=1 / psy_rd=1.20:0.00 / mixed_ref=1 / me_range=24 / chroma_me=1 / trellis=2 / 8x8dct=1 / cqm=0 / deadzone=21,11 / fast_pskip=0 / chroma_qp_offset=-2 / threads=22 / lookahead_threads=3 / sliced_threads=0 / nr=0 / decimate=0 / interlaced=0 / bluray_compat=0 / constrained_intra=0 / bframes=8 / b_pyramid=2 / b_adapt=2 / b_bias=0 / direct=3 / weightb=1 / open_gop=0 / weightp=2 / keyint=250 / keyint_min=24 / scenecut=40 / intra_refresh=0 / rc_lookahead=60 / rc=crf / mbtree=1 / crf=20.5 / qcomp=0.60 / qpmin=0 / qpmax=69 / qpstep=4 / ip_ratio=1.40 / aq=3:0.90
    Default            : Yes
    Forced           : No
    Color range          : Limited
    Matrix coefficients        : BT.709

    Audio #1
    ID             : 2
    Format           : AC-3
    Format/Info          : Audio Coding 3
    Commercial name        : Dolby Digital
    Codec ID           : A_AC3
    Duration           : 2 h 11 min
    Bit rate mode          : Constant
    Bit rate           : 640 kb/s
    Channel(s)           : 6 channels
    Channel layout         : L R C LFE Ls Rs
    Sampling rate          : 48.0 kHz
    Frame rate           : 31.250 FPS (1536 SPF)
    Compression mode         : Lossy
    Stream size          : 602 MiB (9%)
    Language           : English
    Service kind         : Complete Main
    Default            : Yes
    Forced           : No

    Audio #2
    ID             : 3
    Format           : AAC LC
    Format/Info          : Advanced Audio Codec Low Complexity
    Codec ID           : A_AAC-2
    Duration           : 2 h 11 min
    Bit rate           : 92.6 kb/s
    Channel(s)           : 2 channels
    Channel layout         : L R
    Sampling rate          : 48.0 kHz
    Frame rate           : 46.875 FPS (1024 SPF)
    Compression mode         : Lossy
    Delay relative to video      : 20 ms
    Stream size          : 87.0 MiB (1%)
    Title            : Commentary
    Language           : English
    Default            : No
    Forced           : No

    Text
    ID             : 4
    Format           : PGS
    Muxing mode          : zlib
    Codec ID           : S_HDMV/PGS
    Codec ID/Info          : Picture based subtitle format used on BDs/HD-DVDs
    Duration           : 2 h 7 min
    Bit rate           : 39.7 kb/s
    Count of elements        : 3454
    Stream size          : 36.1 MiB (1%)
    Title            : SDH
    Language           : English
    Default            : No
    Forced           : No

    Menu
    00:00:00.000         : Chapter 01
    00:03:41.167         : Chapter 02
    00:24:22.833         : Chapter 03
    00:39:50.000         : Chapter 04
    01:10:27.500         : Chapter 05
    01:22:32.458         : Chapter 06
    01:47:55.250         : Chapter 07
    02:09:12.667         : Chapter 08






                                                                      
                                                                                                                                                                                                                                                                                     
    cc5a4360f8238b39cbfeb376da1ede1f.torrent (16.43 KB, 下載次數: 0)

    回復

    使用道具 舉報

    小黑屋|西西論壇

    本網站所有資源來自網絡,如無意中侵犯了您的權益,請發郵件至 [email protected],立即清除相關鏈接

    GMT+8, 2024-5-24 17:21 , Processed in 0.071608 second(s), 25 queries .

    Powered by Discuz! X3.2

    © 2001-2013 Comsenz Inc.

    快速回復 返回頂部 返回列表
    caoponrn免费公开视频,国产97人人超碰caoprom,久久人人97超碰caoporen,超碰CaoPorn97人人
  • <small id="eqgyu"><input id="eqgyu"></input></small><rt id="eqgyu"><tbody id="eqgyu"></tbody></rt>
  • <optgroup id="eqgyu"><object id="eqgyu"></object></optgroup>