• <small id="eqgyu"><input id="eqgyu"></input></small><rt id="eqgyu"><tbody id="eqgyu"></tbody></rt>
  • <optgroup id="eqgyu"><object id="eqgyu"></object></optgroup>
  • 西西論壇

     找回密碼
     立即注冊
    搜索
    打印 上一主題 下一主題

    狂風沙/無法無天 American.Outlaws.2001.720p.BluRay.x264-YAMG 4.53GB

    [復制鏈接]
    跳轉到指定樓層
    樓主
    admin 發表于 2021-11-30 17:13:30 | 只看該作者 |只看大圖 回帖獎勵 |倒序瀏覽 |閱讀模式
    狂風沙/無法無天 American.Outlaws.2001.720p.BluRay.x264-YAMG 4.53GB                                                                                                                                                                              -->
    帖子完整標題:狂風沙/無法無天 American.Outlaws.2001.720p.BluRay.x264-YAMG 4.53GB





    ◎譯  名 狂風沙/無法無天/美國流氓
    ◎片  名 American Outlaws
    ◎年  代 2001
    ◎產  地 美國
    ◎類  別 動作 / 西部
    ◎語  言 英語
    ◎上映日期 2001-08-17
    ◎豆瓣評分 6.8/10 from 314 users
    ◎ 
    ◎片  長 94 分鐘
    ◎導  演 萊斯·梅菲爾德 Les Mayfield
    ◎編  劇 約翰·羅杰斯 John Rogers
    ◎主  演 科林·法瑞爾 Colin Farrell
         斯科特·凱恩 Scott Caan
         艾麗·拉特 Ali Larter
         蓋布瑞·馬赫特 Gabriel Macht
         格里高利·史密斯 Gregory Smith
         哈里斯·于林 Harris Yulin
         約翰尼·巴蒂 Johnny Bartee
         Lane Thomas Wilson Lane Thomas Wilson
         Steve Crawford Steve Crawford
         凱西·貝茨 Kathy Bates
         特洛伊·迪林格 Troy Dillinger
         Marvin Schroeder Marvin Schroeder
         羅尼·考克斯 Ronny Cox
         克里斯·華納 Chris Warner
         繆斯·沃森 Muse Watson
         特瑞·歐奎恩 Terry O'Quinn
         Barry Tubb Barry Tubb
         納森尼爾·阿坎德 Nathaniel Arcand
         Steven Bland Steven Bland
         Ty O'Neal Ty O'Neal
         布拉德·利蘭 Brad Leland
         理查德·瓊斯 Richard Jones
         Ed Geldart Ed Geldart
         杰里米·丹茨林格 Jeremy Denzlinger
         Big Skinny Brown Big Skinny Brown
         達里爾·考克斯 Darryl Cox
         提摩西·道爾頓 Timothy Dalton

    ◎標  簽 西部片 | 美國 | 西部 | 科林·法瑞爾 | ColinFarrell | 美國電影 | 犯罪 | 電影

    ◎簡  介

      故事講述的是在美國內戰期間,當地的一些農民們離開密蘇里州的一個名叫利布提(Liberty)的小鎮時,還是一群孩子。4年后,他們作為戰敗的南方人回到自己的家鄉,想重新開始他們以前的生活----耕種土地、養家活口,此時他們已是一群強壯的漢子了。
      
      但是,“回家”的夢景是多么的短暫:杰西-詹姆斯(Jesse James,科林-法瑞爾飾,Colin Farrell)和他的弟弟弗蘭克-詹姆斯(Frank James,加布里埃爾-麥希特飾,Gabriel Macht),科爾和鮑勃-揚格兄弟(Cole and Bob Younger,斯科特-坎Scott Caan和維爾-麥考馬克Will Mccormack分別飾演)以及他們信得過的朋友科馬奇-湯姆(Comanche Tom,納撒尼爾-阿卡德飾,Nathaniel Arcand)回到他們久違的家鄉時,發現那兒已被聯邦軍隊占領了。與此同時,財大氣粗的鐵路巨頭撒迪厄斯-瑞恩斯(Thaddeus Rains,哈里斯-尤林飾,Harris Yulin)的石島鐵路公司正在向西拓展,該公司強迫農民們以不合理的低價將他們世代的家園出賣。更糟的是,惡名遠揚的艾倫-平克頓(Allan Pinkerton,提莫西-多爾頓飾,Timothy Dalton)私人偵探公司也竭盡全力幫助這個鐵路公司欺壓這些無辜的平民。
      
      這一小群退役的士兵們為了共同的利益而團結起來,開始了保衛家園,與東海岸資本家作斗爭反叛之路?!罢材匪?揚格"五兄弟以及吉姆-楊格(Jim Younger,格雷戈里-史密斯飾,Gregory Smith)、克萊-米勒(Clell Miller,TY-奧尼爾飾,TY O'Neal)、朗尼-帕克伍德(Loni Packwood,喬-史蒂文斯飾,Joe Stevens)等,與鐵路公司的血海深仇逼使他們走上了一條踏遍整個西部的征程。他們要向鐵路公司最要害的地方下手,阻止他們無法無天地鋪設鐵路。起初,他們的對手低估了他們,但“詹姆斯-揚格”的這幫兄弟們毀壞鐵路供應線、顛覆鐵軌、搶劫公司存儲薪水的銀行,無所不為。他們證明了,他們才是徹頭徹尾的無法無天之徒。
      
      這些無法無天之徒將掠奪來的財物與人們分享,在人民心中成為了受人尊敬的英雄。但是這幫人毫無節制的報復不可避免地使杰西-詹姆斯失去了他的真愛----家鄉美麗的齊-米米(Zee Mimms,艾麗-拉特飾,Ali Larter)。他的名聲也是越來越壞,這使得幫派內也發生了沖突--這個沖突并不亞于他們的敵人艾倫-平克頓,足以威脅到他們的生存。
    Video
    ID             : 1
    Format           : AVC
    Format/Info          : Advanced Video Codec
    Format profile         :
    Format settings        : CABAC / 9 Ref Frames
    Format settings, CABAC       : Yes
    Format settings, Reference frames  : 9 frames
    Codec ID           : V_MPEG4/ISO/AVC
    Duration           : 1 h 34 min
    Bit rate           : 6 192 kb/s
    Width            : 1 280 pixels
    Height           : 692 pixels
    Display aspect ratio       : 1.85:1
    Frame rate mode        : Constant
    Frame rate           : 23.976 (24000/1001/189150) FPS
    Color space          : YUV
    Chroma subsampling       : 4:2:0
    Bit depth          : 8 bits
    Scan type          : Progressive
    Bits/(Pixel*Frame)       : 0.292
    Stream size          : 4.08 GiB (90%)
    Writing library        : x264 core 164 r3065 ae03d92
    Encoding settings        : cabac=1 / ref=9 / deblock=1:-3:-3 / analyse=0x3:0x133 / me=umh / subme=10 / psy=1 / psy_rd=1.00:0.00 / mixed_ref=1 / me_range=32 / chroma_me=1 / trellis=2 / 8x8dct=1 / cqm=0 / deadzone=21,11 / fast_pskip=0 / chroma_qp_offset=-2 / threads=22 / lookahead_threads=3 / sliced_threads=0 / nr=0 / decimate=0 / interlaced=0 / bluray_compat=0 / constrained_intra=0 / bframes=8 / b_pyramid=2 / b_adapt=2 / b_bias=0 / direct=3 / weightb=1 / open_gop=0 / weightp=2 / keyint=250 / keyint_min=23 / scenecut=40 / intra_refresh=0 / rc=crf / mbtree=0 / crf=18.0 / qcomp=0.60 / qpmin=0 / qpmax=69 / qpstep=4 / ip_ratio=1.40 / pb_ratio=1.30 / aq=3:0.60
    Language           : English
    Default            : Yes
    Forced           : No
    Color range          : Limited
    Matrix coefficients        : BT.709

    Audio
    ID             : 2
    Format           : AC-3
    Format/Info          : Audio Coding 3
    Commercial name        : Dolby Digital
    Codec ID           : A_AC3
    Duration           : 1 h 34 min
    Bit rate mode          : Constant
    Bit rate           : 640 kb/s
    Channel(s)           : 6 channels
    Channel layout         : L R C LFE Ls Rs
    Sampling rate          : 48.0 kHz
    Frame rate           : 31.250 FPS (1536 SPF)
    Compression mode         : Lossy
    Stream size          : 431 MiB (9%)
    Title            : English
    Language           : English
    Service kind         : Complete Main
    Default            : Yes
    Forced           : No

    Text #1
    ID             : 3
    Format           : UTF-8
    Codec ID           : S_TEXT/UTF8
    Codec ID/Info          : UTF-8 Plain Text
    Duration           : 1 h 29 min
    Bit rate           : 65 b/s
    Count of elements        : 1355
    Stream size          : 43.1 KiB (0%)
    Title            : English
    Language           : English
    Default            : No
    Forced           : No

    Text #2
    ID             : 4
    Format           : UTF-8
    Codec ID           : S_TEXT/UTF8
    Codec ID/Info          : UTF-8 Plain Text
    Duration           : 1 h 29 min
    Bit rate           : 69 b/s
    Count of elements        : 1475
    Stream size          : 45.6 KiB (0%)
    Title            : English SDH
    Language           : English
    Default            : No
    Forced           : No

    Text #3
    ID             : 5
    Format           : UTF-8
    Codec ID           : S_TEXT/UTF8
    Codec ID/Info          : UTF-8 Plain Text
    Duration           : 1 h 33 min
    Bit rate           : 52 b/s
    Count of elements        : 1272
    Stream size          : 35.9 KiB (0%)
    Title            : French
    Language           : French
    Default            : No
    Forced           : No

    Text #4
    ID             : 6
    Format           : PGS
    Muxing mode          : zlib
    Codec ID           : S_HDMV/PGS
    Codec ID/Info          : Picture based subtitle format used on BDs/HD-DVDs
    Duration           : 1 h 29 min
    Bit rate           : 37.5 kb/s
    Count of elements        : 2950
    Stream size          : 24.1 MiB (1%)
    Title            : English SDH PGS
    Language           : English
    Default            : No
    Forced           : No

    Text #5
    ID             : 7
    Format           : PGS
    Muxing mode          : zlib
    Codec ID           : S_HDMV/PGS
    Codec ID/Info          : Picture based subtitle format used on BDs/HD-DVDs
    Duration           : 1 h 33 min
    Bit rate           : 27.0 kb/s
    Count of elements        : 2544
    Stream size          : 18.0 MiB (0%)
    Title            : French PGS
    Language           : French
    Default            : No
    Forced           : No

    Text #6
    ID             : 8
    Format           : PGS
    Muxing mode          : zlib
    Codec ID           : S_HDMV/PGS
    Codec ID/Info          : Picture based subtitle format used on BDs/HD-DVDs
    Duration           : 1 h 33 min
    Bit rate           : 31.3 kb/s
    Count of elements        : 2146
    Stream size          : 20.9 MiB (0%)
    Title            : Spanish PGS
    Language           : Spanish
    Default            : No
    Forced           : No

    Text #7
    ID             : 9
    Format           : PGS
    Muxing mode          : zlib
    Codec ID           : S_HDMV/PGS
    Codec ID/Info          : Picture based subtitle format used on BDs/HD-DVDs
    Duration           : 53 min 7 s
    Bit rate           : 517 b/s
    Count of elements        : 20
    Stream size          : 202 KiB (0%)
    Title            : Spanish Forced PGS
    Language           : Spanish
    Default            : No
    Forced           : No

    Menu
    00:00:00.000         : Chapter 01
    00:10:01.392         : Chapter 02
    00:20:01.325         : Chapter 03
    00:30:02.342         : Chapter 04
    00:40:02.567         : Chapter 05
    00:50:03.542         : Chapter 06
    01:00:03.683         : Chapter 07
    01:10:04.450         : Chapter 08
    01:20:05.634         : Chapter 09
    01:30:05.859         : Chapter 10
    01:34:13.857         : Chapter 11





                                                                      
                                                                                                                                                                                                                                                                                     
    69ecc20e1df4122e351e80059b82e6d4.torrent (23.36 KB, 下載次數: 0)

    回復

    使用道具 舉報

    小黑屋|西西論壇

    本網站所有資源來自網絡,如無意中侵犯了您的權益,請發郵件至 [email protected],立即清除相關鏈接

    GMT+8, 2024-5-24 15:21 , Processed in 0.293756 second(s), 25 queries .

    Powered by Discuz! X3.2

    © 2001-2013 Comsenz Inc.

    快速回復 返回頂部 返回列表
    caoponrn免费公开视频,国产97人人超碰caoprom,久久人人97超碰caoporen,超碰CaoPorn97人人
  • <small id="eqgyu"><input id="eqgyu"></input></small><rt id="eqgyu"><tbody id="eqgyu"></tbody></rt>
  • <optgroup id="eqgyu"><object id="eqgyu"></object></optgroup>