• <small id="eqgyu"><input id="eqgyu"></input></small><rt id="eqgyu"><tbody id="eqgyu"></tbody></rt>
  • <optgroup id="eqgyu"><object id="eqgyu"></object></optgroup>
  • 西西論壇

     找回密碼
     立即注冊
    搜索
    打印 上一主題 下一主題

    氣球 Balloon.2019.720p.BluRay.x264-YAMG 5.87GB

    [復制鏈接]
    跳轉到指定樓層
    樓主
    admin 發表于 2021-11-30 17:13:30 | 只看該作者 |只看大圖 回帖獎勵 |倒序瀏覽 |閱讀模式
    氣球 Balloon.2019.720p.BluRay.x264-YAMG 5.87GB                                                                                                                                                                              -->
    帖子完整標題:氣球 Balloon.2019.720p.BluRay.x264-YAMG 5.87GB





    ◎譯  名 Balloon/???????????/羊飼いと風船
    ◎片  名 氣球
    ◎年  代 2019
    ◎產  地 中國大陸
    ◎類  別 劇情
    ◎語  言 藏語
    ◎上映日期 2019-08-30(威尼斯電影節) / 2020-11-20(中國大陸)
    ◎豆瓣評分 7.7/10 from 72621 users
    ◎ 
    ◎片  長 102分鐘
    ◎導  演 萬瑪才旦 Pema Tseden
    ◎編  劇 萬瑪才旦 Pema Tseden
    ◎主  演 索朗旺姆 Sonam Wangmo
         金巴 Jinpa
         楊秀措 Yangshik Tso

    ◎標  簽 萬瑪才旦 | 西藏 | 文藝 | 藏語 | 劇情 | 中國電影 | 中國 | 大陸

    ◎簡  介

      《氣球》故事發生在藏地,講述靈魂與現實的緊張關系。
      
      主人公達杰一家因一只普通的避孕套卷入了一系列尷尬而又難以抉擇的事件當中,他們原本寧靜的日常生活被徹底打破,生老病死如日月流轉,當靈魂遭遇現實的挑戰,該如何抉擇?

    ◎獲獎情況

      第76屆威尼斯電影節 ?(2019)
      地平線單元獎最佳影片(提名) 萬瑪才旦
      
      第23屆上海國際電影節 ?(2020)
      電影頻道傳媒大獎最受傳媒關注導演 萬瑪才旦
      電影頻道傳媒大獎最受傳媒關注編劇 萬瑪才旦
      電影頻道傳媒大獎(提名) 萬瑪才旦
      
      第14屆亞洲電影大獎 ?(2020)
      最佳導演(提名) 萬瑪才旦
      最佳男配角(提名) 金巴
      最佳編劇(提名) 萬瑪才旦
      最佳攝影(提名) 呂松野
      
      第3屆平遙國際電影展 ?(2019)
      影展之最單元最受歡迎影片(提名) 萬瑪才旦
      
      第2屆海南島國際電影節 ?(2019)
      金椰獎最佳影片獎
      金椰獎最佳女演員獎 索朗旺姆
      
      第7屆豆瓣電影年度榜單 ?(2020)
      評分最高的華語電影(提名)
    Video
    ID             : 1
    Format           : AVC
    Format/Info          : Advanced Video Codec
    Format profile         :
    Format settings        : CABAC / 9 Ref Frames
    Format settings, CABAC       : Yes
    Format settings, Reference frames  : 9 frames
    Codec ID           : V_MPEG4/ISO/AVC
    Duration           : 1 h 42 min
    Bit rate           : 7 508 kb/s
    Width            : 1 280 pixels
    Height           : 690 pixels
    Display aspect ratio       : 1.85:1
    Frame rate mode        : Constant
    Frame rate           : 24.000 FPS
    Color space          : YUV
    Chroma subsampling       : 4:2:0
    Bit depth          : 8 bits
    Scan type          : Progressive
    Bits/(Pixel*Frame)       : 0.354
    Stream size          : 5.39 GiB (92%)
    Writing library        : x264 core 164 r3075 66a5bc1
    Encoding settings        : cabac=1 / ref=9 / deblock=1:-3:-3 / analyse=0x3:0x133 / me=umh / subme=10 / psy=1 / psy_rd=1.00:0.00 / mixed_ref=1 / me_range=32 / chroma_me=1 / trellis=2 / 8x8dct=1 / cqm=0 / deadzone=21,11 / fast_pskip=0 / chroma_qp_offset=-2 / threads=22 / lookahead_threads=3 / sliced_threads=0 / nr=0 / decimate=0 / interlaced=0 / bluray_compat=0 / constrained_intra=0 / bframes=8 / b_pyramid=2 / b_adapt=2 / b_bias=0 / direct=3 / weightb=1 / open_gop=0 / weightp=2 / keyint=250 / keyint_min=24 / scenecut=40 / intra_refresh=0 / rc=crf / mbtree=0 / crf=17.0 / qcomp=0.60 / qpmin=0 / qpmax=69 / qpstep=4 / ip_ratio=1.40 / pb_ratio=1.30 / aq=3:0.60
    Language           : English
    Default            : Yes
    Forced           : No
    Color range          : Limited
    Matrix coefficients        : BT.709

    Audio
    ID             : 2
    Format           : AC-3
    Format/Info          : Audio Coding 3
    Commercial name        : Dolby Digital
    Codec ID           : A_AC3
    Duration           : 1 h 42 min
    Bit rate mode          : Constant
    Bit rate           : 640 kb/s
    Channel(s)           : 6 channels
    Channel layout         : L R C LFE Ls Rs
    Sampling rate          : 48.0 kHz
    Frame rate           : 31.250 FPS (1536 SPF)
    Compression mode         : Lossy
    Stream size          : 471 MiB (8%)
    Title            : Tibetan
    Language           : Tibetan
    Service kind         : Complete Main
    Default            : Yes
    Forced           : No

    Text #1
    ID             : 3
    Format           : UTF-8
    Codec ID           : S_TEXT/UTF8
    Codec ID/Info          : UTF-8 Plain Text
    Duration           : 1 h 36 min
    Bit rate           : 26 b/s
    Count of elements        : 916
    Stream size          : 18.9 KiB (0%)
    Title            : English Forced
    Language           : English
    Default            : Yes
    Forced           : Yes

    Text #2
    ID             : 4
    Format           : PGS
    Muxing mode          : zlib
    Codec ID           : S_HDMV/PGS
    Codec ID/Info          : Picture based subtitle format used on BDs/HD-DVDs
    Duration           : 1 h 36 min
    Bit rate           : 17.9 kb/s
    Count of elements        : 1715
    Stream size          : 12.4 MiB (0%)
    Title            : English Forced PGS
    Language           : English
    Default            : No
    Forced           : No

    Text #3
    ID             : 5
    Format           : PGS
    Muxing mode          : zlib
    Codec ID           : S_HDMV/PGS
    Codec ID/Info          : Picture based subtitle format used on BDs/HD-DVDs
    Duration           : 1 h 36 min
    Bit rate           : 14.3 kb/s
    Count of elements        : 1716
    Stream size          : 9.94 MiB (0%)
    Title            : Traditional Chinese PGS
    Language           : Chinese
    Default            : No
    Forced           : No

    Menu
    00:00:00.000         : en:Chapter 01
    00:08:34.917         : en:Chapter 02
    00:20:13.000         : en:Chapter 03
    00:27:57.625         : en:Chapter 04
    00:37:27.917         : en:Chapter 05
    00:51:13.708         : en:Chapter 06
    01:02:41.500         : en:Chapter 07
    01:08:47.542         : en:Chapter 08
    01:17:05.750         : en:Chapter 09
    01:24:58.250         : en:Chapter 10
    01:33:20.375         : en:Chapter 11
    01:39:45.292         : en:Chapter 12






                                                                      
                                                                                                                                                                                                                                                                                     
    115544f8e62ee8d67e92e77956a30c6b.torrent (15.36 KB, 下載次數: 0)

    回復

    使用道具 舉報

    小黑屋|西西論壇

    本網站所有資源來自網絡,如無意中侵犯了您的權益,請發郵件至 [email protected],立即清除相關鏈接

    GMT+8, 2024-5-24 16:31 , Processed in 0.070837 second(s), 25 queries .

    Powered by Discuz! X3.2

    © 2001-2013 Comsenz Inc.

    快速回復 返回頂部 返回列表
    caoponrn免费公开视频,国产97人人超碰caoprom,久久人人97超碰caoporen,超碰CaoPorn97人人
  • <small id="eqgyu"><input id="eqgyu"></input></small><rt id="eqgyu"><tbody id="eqgyu"></tbody></rt>
  • <optgroup id="eqgyu"><object id="eqgyu"></object></optgroup>