• <small id="eqgyu"><input id="eqgyu"></input></small><rt id="eqgyu"><tbody id="eqgyu"></tbody></rt>
  • <optgroup id="eqgyu"><object id="eqgyu"></object></optgroup>
  • 西西論壇

     找回密碼
     立即注冊
    搜索
    打印 上一主題 下一主題

    解藥 Antidote.2021.720p.BluRay.x264-GETiT 1.47GB

    [復制鏈接]
    跳轉到指定樓層
    樓主
    admin 發表于 2021-11-25 19:09:10 | 只看該作者 |只看大圖 回帖獎勵 |倒序瀏覽 |閱讀模式
    解藥 Antidote.2021.720p.BluRay.x264-GETiT 1.47GB                                                                                                                                                                              -->
    帖子完整標題:解藥 Antidote.2021.720p.BluRay.x264-GETiT 1.47GB





    ◎譯  名 解藥/Panacea
    ◎片  名 Panacea
    ◎年  代 2020
    ◎產  地 美國
    ◎類  別 驚悚
    ◎語  言 英語
    ◎上映日期 
    ◎豆瓣評分 /10 from 0 users
    ◎ 
    ◎主  演 路易·曼迪勒 Louis Mandylor
         艾什琳恩·葉尼 Ashlynn Yennie

    ◎標  簽 驚悚 | 美國驚悚 | 美國 | 2020

    ◎簡  介

      A young woman is held captive in an underground medical facility where selected individuals are perpetually mutilated and then healed using an experimental miracle drug: a panacea.
    Video
    ID             : 1
    Format           : AVC
    Format/Info          : Advanced Video Codec
    Format profile         :
    Format settings        : CABAC / 8 Ref Frames
    Format settings, CABAC       : Yes
    Format settings, Reference frames  : 8 frames
    Codec ID           : V_MPEG4/ISO/AVC
    Duration           : 1 h 27 min
    Bit rate           : 1 759 kb/s
    Width            : 1 280 pixels
    Height           : 544 pixels
    Display aspect ratio       : 2.35:1
    Frame rate mode        : Constant
    Frame rate           : 23.976 (24000/1001/189150) FPS
    Color space          : YUV
    Chroma subsampling       : 4:2:0
    Bit depth          : 8 bits
    Scan type          : Progressive
    Bits/(Pixel*Frame)       : 0.105
    Stream size          : 1.08 GiB (73%)
    Writing library        : x264 core 164 r3075 66a5bc1
    Encoding settings        : cabac=1 / ref=8 / deblock=1:-3:-3 / analyse=0x3:0x133 / me=umh / subme=9 / psy=1 / psy_rd=1.00:0.00 / mixed_ref=1 / me_range=16 / chroma_me=1 / trellis=2 / 8x8dct=1 / cqm=0 / deadzone=21,11 / fast_pskip=0 / chroma_qp_offset=-2 / threads=17 / lookahead_threads=1 / sliced_threads=0 / nr=0 / decimate=1 / interlaced=0 / bluray_compat=0 / constrained_intra=0 / bframes=3 / b_pyramid=2 / b_adapt=2 / b_bias=0 / direct=3 / weightb=1 / open_gop=0 / weightp=2 / keyint=250 / keyint_min=23 / scenecut=40 / intra_refresh=0 / rc_lookahead=60 / rc=crf / mbtree=1 / crf=17.0 / qcomp=0.60 / qpmin=0 / qpmax=69 / qpstep=4 / ip_ratio=1.40 / aq=3:1.00
    Default            : Yes
    Forced           : No
    Color range          : Limited
    Matrix coefficients        : BT.709

    Audio
    ID             : 2
    Format           : AC-3
    Format/Info          : Audio Coding 3
    Commercial name        : Dolby Digital
    Codec ID           : A_AC3
    Duration           : 1 h 27 min
    Bit rate mode          : Constant
    Bit rate           : 640 kb/s
    Channel(s)           : 6 channels
    Channel layout         : L R C LFE Ls Rs
    Sampling rate          : 48.0 kHz
    Frame rate           : 31.250 FPS (1536 SPF)
    Compression mode         : Lossy
    Stream size          : 403 MiB (27%)
    Language           : English
    Service kind         : Complete Main
    Default            : Yes
    Forced           : No

    Text
    ID             : 3
    Format           : PGS
    Muxing mode          : zlib
    Codec ID           : S_HDMV/PGS
    Codec ID/Info          : Picture based subtitle format used on BDs/HD-DVDs
    Duration           : 1 h 22 min
    Bit rate           : 144 b/s
    Count of elements        : 32
    Stream size          : 87.9 KiB (0%)
    Language           : German
    Default            : No
    Forced           : No

    Menu
    00:00:00.000         : en:00:00:00.000
    00:11:12.922         : en:00:11:12.922
    00:18:56.010         : en:00:18:56.010
    00:36:16.383         : en:00:36:16.383
    00:42:56.991         : en:00:42:56.991
    00:52:15.424         : en:00:52:15.424
    01:03:54.205         : en:01:03:54.205
    01:12:00.691         : en:01:12:00.691






                                                                      
                                                                                                                                                                                                                                                                                     
    100c9e2261237aa364f00b3890ed07d1.torrent (15.42 KB, 下載次數: 0)

    回復

    使用道具 舉報

    小黑屋|西西論壇

    本網站所有資源來自網絡,如無意中侵犯了您的權益,請發郵件至 [email protected],立即清除相關鏈接

    GMT+8, 2024-5-24 15:27 , Processed in 0.098195 second(s), 29 queries .

    Powered by Discuz! X3.2

    © 2001-2013 Comsenz Inc.

    快速回復 返回頂部 返回列表
    caoponrn免费公开视频,国产97人人超碰caoprom,久久人人97超碰caoporen,超碰CaoPorn97人人
  • <small id="eqgyu"><input id="eqgyu"></input></small><rt id="eqgyu"><tbody id="eqgyu"></tbody></rt>
  • <optgroup id="eqgyu"><object id="eqgyu"></object></optgroup>